#TITLE:Dawn;
#SUBTITLE:;
#ARTIST:Sonitus Vir;
#TITLETRANSLIT:;
#SUBTITLETRANSLIT:;
#ARTISTTRANSLIT:;
#CREDIT:;
#BANNER:dawn-bn.jpg;
#BACKGROUND:dawn-bg.jpg;
#LYRICSPATH:dawn.lrc;
#CDTITLE:dawn.png;
#MUSIC:Dawn.ogg;
#OFFSET:-0.080;
#SAMPLESTART:26.380;
#SAMPLELENGTH:12.000;
#SELECTABLE:YES;
#BPMS:0.000=155.000;
#STOPS:;
#BGCHANGES:;
// cache tags:
#FIRSTBEAT:4.000;
#LASTBEAT:230.000;
#SONGFILENAME:Songs/Music V.I.P ^_^/Dawn/Dawn.sm;
#HASMUSIC:1;
#HASBANNER:1;
#MUSICLENGTH:92.499;
// end cache tags

//---------------dance-single - ----------------
#NOTES:
     dance-single:
     :
     Hard:
     10:
     1.000,1.000,1.000,0.638,0.832,497.000,184.000,59.000,0.000,91.000:
0000
0000
0000
0000
,
0111
0000
0010
1000
0100
0000
0010
0000
0201
0000
0000
0000
0310
0000
0000
0000
,
1011
0000
0001
0010
0100
0000
0010
0000
1020
0000
0000
0000
0230
0000
0000
0000
,
1311
0000
0100
0010
0002
0000
0200
0000
1323
0000
0001
0000
0132
0000
0023
0000
,
2130
0000
0020
0100
3031
0000
2000
0000
3120
0000
0032
0000
2113
0000
0010
0000
,
3011
0100
0010
0101
1000
0001
0110
0001
0100
0010
1000
0010
,
0101
1000
0100
1000
0010
0001
0110
1000
0001
0100
0010
1000
,
0011
1000
0010
0100
0001
1000
1100
0001
0100
0010
1000
0100
,
0011
0001
0100
0010
1000
0010
1100
0001
1000
0010
0100
0001
,
2020
0000
3031
0000
0000
0202
0000
0313
,
0010
0000
0000
0000
,
2201
0000
0000
0000
3310
0000
0000
0000
0000
0000
0220
0001
1000
0000
0331
0000
,
1011
0000
0000
0000
,
1221
0000
1331
0000
0000
1022
0000
0133
,
1100
0000
0000
0000
,
2012
0000
0000
0000
3013
0000
0000
0000
0000
0000
0202
0010
1000
0000
1313
0000
,
0111
0000
0000
0000
0000
0000
0000
0000
0000
0000
0000
0001
1010
0000
0000
0000
,
1110
0000
0100
0010
0001
0000
0100
0000
2000
0000
0000
0000
3020
0000
0000
0000
,
1030
0000
0010
0001
0200
0000
0001
0000
1300
0100
0010
0000
1000
0000
0100
0001
,
0110
0000
0000
0010
0100
0001
0000
0000
0200
0000
0000
0010
1300
0100
0000
0000
,
1010
0100
1010
0001
0011
0100
1010
0001
,
0111
0000
0100
0010
1000
0000
0010
0000
0200
0000
0000
0000
0302
0000
0000
0000
,
1013
0000
0010
0001
0100
0000
0011
0000
0110
1000
0100
0000
0011
0000
0010
0100
,
0002
0000
0000
0100
0013
0100
0000
0000
1200
0000
0000
0010
1301
0010
0000
0000
,
0101
0010
0101
1000
1100
0110
0211
0000
,
1311
0000
1000
0000
2000
0000
0010
0100
3002
0100
0010
0000
1003
0000
1000
0010
,
0100
0000
1000
0001
0020
0000
0100
0000
0031
0000
1000
0100
0010
0000
0100
0000
,
0121
0000
1100
0131
0011
0110
1100
0110
,
0000
0000
0011
0000
0000
0000
1001
0000
1010
0000
0101
1000
0011
0000
1010
0000
,
1210
0001
1010
0000
0011
0000
0000
0000
0311
0000
1100
0001
0010
0000
1010
0000
,
1100
0010
0100
1000
0110
0000
0011
0000
0000
0000
0110
0000
1100
0000
0001
0001
,
1210
0000
1010
1001
0011
1010
0311
0110
,
0000
0000
0011
0000
0000
0000
1010
0000
1100
0000
0110
0000
0011
1000
0110
0000
,
1011
0100
1010
0001
0011
0100
1010
1000
,
1100
0001
0011
0100
1010
0100
1010
0010
,
1201
0000
0010
0000
1010
0000
0001
0000
0011
0000
1000
0000
1310
0001
0100
0000
,
1010
0000
0001
0000
0101
0000
0001
0010
1100
0000
0110
0000
0011
0000
0100
0000
,
1210
0001
0011
0010
1320
1100
0100
1001
,
2130
0010
0101
0010
3012
0100
1010
1000
,
1213
0010
1001
0001
0011
1000
1010
0001
,
1010
0000
0010
0000
0011
0000
1000
0001
0310
0000
1010
0000
0101
0000
0000
0000
,
1011
0100
1000
0111
0000
0000
1101
0010
0100
0010
0100
0000
0200
0000
0000
0000
,
1311
0100
1001
0010
0000
1011
0100
0010
1101
0000
0001
0000
0002
0000
0000
0000
,
1113
0001
1000
0111
1000
0000
1110
0001
0010
0100
0010
0000
0020
0000
0000
0000
,
1131
0010
0101
1000
0000
1011
0100
0010
1101
0010
1000
0000
2000
0000
0000
0000
,
3111
1000
0100
1011
0000
0001
1110
0001
0010
0100
0010
0000
0020
0000
0000
0000
,
1131
0010
0101
1000
0000
1011
0100
0001
1110
0001
0100
0000
0200
0000
0000
0000
,
1311
0100
0010
1101
0000
0000
1011
0000
0001
0000
1010
0000
0010
0000
0101
0000
,
0101
0010
1000
0010
1100
0001
1000
0100
0010
0100
0010
0001
0110
0000
0000
0000
,
0011
0100
0010
1000
0100
0010
0001
0010
0100
1000
0001
0010
0100
1000
0001
0100
,
0011
1000
0100
0010
0001
0010
0100
1000
0011
0100
0010
1000
0100
0010
0100
1000
,
0011
0100
0010
0100
1001
0010
0100
0010
0101
1000
0110
0001
1010
0100
0011
1000
,
0101
0010
1001
0100
1001
0100
0010
0100
1001
0010
0100
0010
1001
0100
0010
0100
,
1011
0100
0010
0100
1001
0010
1001
0100
1010
0001
0010
0100
0011
1000
0100
0010
,
1001
0010
0101
1000
0101
0010
0100
1000
0011
0100
0010
1100
0011
1100
0011
0000
,
1001
0110
0000
0000
0110
1001
0000
0000
,
2012
0000
0000
0000
,
0000
0000
0000
0000
0000
0000
0000
0000
0000
0000
0000
0000
0000
0000
0000
3003
0000
0000
0001
0000
1000
0000
0001
0000
1000
0000
0000
0000
0000
0000
0000
0000
0000
0000
0000
0000
0000
0000
0000
0000
0000
0000
0000
0000
0000
0000
0000
0000
;
